#TITLE:Smile Again;
#SUBTITLE:- ARIA The NATURAL 2nd Ending;
#ARTIST:Hazuki Erino;
#TITLETRANSLIT:;
#SUBTITLETRANSLIT:;
#ARTISTTRANSLIT:;
#CREDIT:LK4D4;
#BANNER:ARIA E2 banner vid.avi;
#BACKGROUND:ARIAbg1.jpg;
#LYRICSPATH:ARIA The NATURAL E2.lrc;
#CDTITLE:lkred1.png;
#MUSIC:ARIA N E2 Audio.mp3;
#OFFSET:0.480;
#SAMPLESTART:55.650;
#SAMPLELENGTH:12.000;
#SELECTABLE:YES;
#DISPLAYBPM:111.000;
#BPMS:0.000=111.000,155.333=55.500;
#STOPS:;
#BGCHANGES:18.000=ARIA N E2 Video.avi=1.000=1=0=0,
159.000=ARIAbg2.jpg=1.000=1=0=1,
99999=-nosongbg-=1.000=0=0=0 // don't automatically add -songbackground-
;
// cache tags:
#FIRSTBEAT:2.000;
#LASTBEAT:160.333;
#SONGFILENAME:songs/Otaku's Dream 3rd Anime Mix/[LK4D4] Smile Again - ARIA The NATURAL 2nd ED/ARIA The NATURAL E2.sm;
#HASMUSIC:1;
#HASBANNER:1;
#MUSICLENGTH:89.552;
// end cache tags

//---------------dance-single - Blank----------------
#NOTES:
     dance-single:
     Blank:
     Hard:
     7:
     0.463,0.470,0.011,1.000,0.419,147.000,1.000,142.000,1.000,32.000:


0000
0000
0000
0000
0000
0000
0020
0000
0000
0002
0030
0000
,
2003
0000
0020
3000
0000
2030
0000
0000
0200
0000
3000
0300
,
2000
0000
0000
3020
0000
0200
0030
0000
0000
0000
0000
0300
,
2000
0000
0200
3000
0000
0002
0300
0000
0020
0003
0000
0200
,
0000
0000
0000
0000
0000
0001
0331
0000
0000
0000
0000
0000
,
2000
0000
0000
0020
3000
0200
0000
0000
0002
0000
0333
0000
,
2000
0000
0200
0000
0000
0002
0000
0000
0020
3333
0000
0020
,
0002
0030
0013
0000
0000
2000
0020
3000
0200
0000
0000
0030
,
2300
0000
0200
3000
0000
0002
0000
0000
0020
0333
0000
0020
,
2000
0030
3010
0000
0000
0200
0002
0300
2000
0000
0003
0000
,
0200
3000
0300
0020
0000
0000
2000
0000
0200
0000
0000
0002
,
0000
3333
0000
0200
,
2000
0300
0000
0020
3000
0000
0230
0020
2000
0002
3333
0000
,
2000
0000
0000
0200
3000
0020
0000
0000
0002
0000
0333
0000
,
0200
0000
2000
0300
0000
0020
0000
0000
0002
3033
0000
0020
,
0200
0030
1300
0000
0000
2000
0200
3000
0002
0300
0000
0000
,
2000
0003
0200
0000
0000
0002
0000
0000
0020
0000
3333
0020
,
0200
0030
0301
0000
0000
0020
0002
0000
2000
0000
3033
0000
,
0002
0000
0000
0200
0003
0002
0000
0000
2000
0000
0000
0000
,
0000
3303
0000
0000
,
0002
0000
0000
0020
0003
0000
2030
0000
0000
0200
0000
0000
,
3300
0000
0000
0002
0000
0020
0000
0000
0200
0000
0333
0000
,
2000
0000
0000
0200
0000
0020
0000
3330
0000
0002
0000
0000
,
0000
0000
0000
0203
0000
2000
0000
0000
0002
0000
3303
0000
,
0200
0000
0000
0002
0000
0020
0000
0000
2000
0000
0000
0000
,
0000
0000
0000
0000
0000
0000
0000
0000
0000
0000
3333
0000
,
0000
0000
0000
2000
0000
0000
0200
3000
0000
0002
0300
0203
,
2000
0000
0020
0000
0000
3330
0000
0000
0000
0002
0000
0203
,
2000
0000
0020
0000
0000
3330
0000
0000
0000
2000
0000
3200
,
0002
0000
2000
0000
3303
0020
2000
0030
0200
3000
0000
0020
,
0000
0000
0002
0030
0000
20M0
0000
0000
0020
3333
0000
0000
,
0000
0000
0000
0000
0000
0002
0020
0003
0200
0000
0030
0300
,
2000
0000
0000
0020
0000
0002
0000
3033
0000
0220
0000
0000
,
0002
0000
2003
0000
0000
0000
0000
0000
0000
0000
3000
0300
,
0030
0000
2000
0002
3000
0023
2000
0000
0002
0000
0000
0000
,
0000
0000
0000
0000
0000
0000
0000
3033
0000
0020
0000
0000
,
0002
0030
0200
0003
2000
0300
0020
3000
,
0002
0030
2000
0003
0200
3000
0002
0300
,
0020
0000
0000
0003
0000
0000
2000
0000
0000
0030
0000
0000
0020
0000
3000
0000
0002
0000
0000
0000
2000
0000
0000
0000
,
0000
0000
0000
0000
,
0000
3033
0000
0000
0000
0000
0000
0000
0000
0000
0000
0000
;

//---------------dance-single - Blank----------------
#NOTES:
     dance-single:
     Blank:
     Challenge:
     9:
     0.576,0.603,0.525,0.279,0.916,289.000,47.000,25.000,26.000,0.000:

0000
0000
0100
1010
,
0100
0000
0001
0000
0000
0001
0010
000M
0010
0100
00M0
0100
,
1000
0M00
0000
0010
0000
0010
0000
0000
0000
0000
0000
0000
,
1000
0000
0100
M000
0000
0100
0010
0M00
0010
0001
00M0
0002
,
1000
0000
0000
0000
0000
0100
0103
0000
0000
0000
0000
0000
,
2002
3003
1000
0010
0000
0010
0100
0000
0101
0011
0000
0001
,
1000
0000
1000
0100
0000
0100
0010
0000
0011
0101
0000
0200
,
0020
0300
2030
0000
3000
0001
0100
0000
0110
1010
0000
1000
,
0001
0000
0001
0010
0000
0010
1000
0000
0110
1100
0000
2000
,
0020
3000
0230
0000
0300
1000
0100
0000
0101
0011
0000
0100
,
1000
0000
0101
1100
0000
1000
0001
0000
0010
0100
0000
1100
,
0011
0000
0000
0000
0001
0000
0100
0000
0000
0000
0010
1000
0100
0000
0000
0000
0000
0000
0101
0000
0000
0000
0000
0000
,
1010
0000
0000
1200
0010
0310
0011
0101
0110
1001
0000
1000
,
0010
0000
0010
0100
0000
0100
0001
0000
0011
1100
0000
1000
,
0001
0000
0001
0100
0000
0100
0010
0000
1010
0101
0000
0200
,
0020
0300
2030
0000
3000
1000
0001
0000
0001
0010
0000
0010
,
1000
0000
1000
0100
0000
0100
0010
0000
1010
0011
0000
0002
,
0020
0003
0230
0000
0300
1000
0010
0000
0010
0001
0000
0001
,
0100
0000
0100
0010
0000
0010
0001
0000
0101
2010
0000
0001
,
0010
0000
0000
0000
0100
0000
0010
0000
3000
0000
0100
0000
1000
0000
0100
0010
0001
1000
0100
0000
0000
0000
0000
0000
,
0011
00MM
1010
M0M0
0101
0M0M
2002
0000
,
3003
0000
1000
0010
0000
0010
0100
0000
0100
0001
0000
0001
,
0010
0000
0010
1000
0000
1000
0100
0000
0100
0020
0000
0001
,
1000
0030
1000
0100
0000
0100
1000
0000
1000
0020
0000
0130
,
0001
0000
0010
0100
0000
0100
1000
0000
1000
0002
0000
0010
,
1000
0000
0000
0000
1000
0000
0100
0000
0000
0000
0100
0000
0010
0000
0000
0000
0010
0000
1000
0000
0003
0000
1000
0100
,
0010
0001
0100
1000
0100
0001
0010
0000
0001
0000
0010
0000
1000
0000
0010
0000
0001
0000
0100
0000
0000
0000
0010
0000
,
1000
0000
0000
0000
1100
0000
0000
0000
0000
0000
0010
0100
0010
0000
0000
0000
1000
0000
0100
0000
0000
0000
0010
0000
,
0001
0000
0000
0000
0101
0000
0000
0000
0000
0000
0010
0100
0010
0000
0000
0000
0001
0000
0010
0000
0000
0000
0010
0000
,
1000
0000
0000
0000
1000
0000
0100
0000
0000
0000
0100
0000
0010
0000
0000
0000
1010
0000
0000
M0M0
0000
0000
0011
0000
,
0000
0000
00MM
0000
1100
0000
0000
MM00
0000
0000
0101
0000
0000
M00M
0000
0000
1001
0000
0000
0000
0000
0000
0001
0010
,
0001
0000
1000
0000
0001
0100
0001
0000
1000
0000
0010
0000
0100
0000
0000
0000
0100
0000
0001
0000
0000
0000
0000
0000
,
1010
0000
0000
M0M0
0000
0000
1100
0000
0000
MM00
0011
0000
0000
0000
0000
00MM
0000
0000
0110
0000
0000
0000
0000
0000
,
1000
0000
0000
0000
2000
0000
0001
0001
0001
0000
0001
0000
0010
0000
0001
0000
0010
0000
0100
0000
3000
0000
0000
0000
,
0000
0000
0010
0100
0000
0100
0010
0000
2001
0000
0000
0100
,
0010
0000
0001
0010
0000
0100
0010
3000
0001
0100
0000
0100
,
1000
0000
1000
0010
0000
0010
0001
0000
0001
0100
0000
0100
,
0010
0000
0010
1000
0000
1000
0100
0000
0100
0001
0000
0001
,
0010
0000
0010
1000
0000
1000
0100
0000
0100
0000
0020
0000
,
0000
0000
0000
0000
0000
0001
0000
0001
0000
0000
0000
0000
,
0030
0000
0000
0000
;

//---------------dance-single - Blank----------------
#NOTES:
     dance-single:
     Blank:
     Medium:
     6:
     0.437,0.447,0.514,0.201,0.625,210.000,46.000,18.000,1.000,0.000:


0000
0000
0000
0011
,
0002
0000
0103
0000
0000
0010
1000
0000
0100
0001
0000
0010
,
0100
0000
0001
0010
0000
0100
0000
0000
0000
0000
0000
0000
,
2010
0000
3100
0000
0000
0010
0001
0000
0100
1000
0000
0010
,
0100
0000
1000
0010
0000
0100
1000
0000
0000
0000
0000
0000
,
0100
0000
0000
0100
0000
0001
0000
0000
0020
0000
0000
0030
,
0100
0000
1000
0000
0000
0010
0000
0000
0101
0000
0000
1000
,
0100
0000
0001
0000
0000
0001
0100
0000
2000
0000
0000
3000
,
0010
0000
0100
0000
0000
0001
0000
0000
0011
0000
0000
1000
,
0010
0000
0001
0000
0000
0001
0010
0000
0200
0000
0000
0300
,
0001
0000
0000
1000
0000
0000
0010
0000
0100
0000
0000
0011
,
0000
0000
0100
1000
0000
0010
0100
0000
0000
0101
0000
0000
,
1010
0000
0000
0011
0000
0000
0100
1000
0001
0010
0000
0000
,
0100
0000
0000
1000
0000
0010
0000
0000
0201
0000
0000
0300
,
0010
0000
1000
0000
0000
0001
0000
0000
1100
0000
0000
0001
,
0010
0000
1000
0000
0000
1000
0010
0000
1200
0000
0000
0300
,
0010
0000
0001
0000
0000
0100
0000
0000
1010
0000
0000
0001
,
0100
0000
1000
0000
0000
1000
0100
0000
0102
0000
0000
0003
,
0010
0000
0000
0100
0000
1000
0000
0000
0210
0000
0000
0001
,
0010
0000
1000
0010
0300
0001
1000
0010
0100
0001
0000
0000
,
1100
0000
0000
0000
0000
0000
0000
0000
0000
0000
0000
0000
0011
0000
0000
0000
0000
0000
0000
0000
0000
0000
0000
0000
1010
0000
0000
0000
0000
0000
0000
0000
0000
0000
0000
0000
0102
0000
0000
0000
0000
0000
0000
0000
0010
0003
0000
0000
,
100M
0000
0000
0100
0000
1000
0000
0000
0011
0000
0000
0000
,
0200
0000
0300
1000
0000
0100
0000
0000
0000
1020
0000
0000
,
0000
0000
0030
0100
0000
0001
0000
0000
0021
0000
0000
0030
,
0001
0000
0000
1000
0000
0100
0000
0000
0120
0000
0000
0001
,
0100
0000
1000
0100
0000
0100
0100
0000
0001
0001
0130
1000
,
0010
0100
0001
0010
0000
0000
1100
0000
0000
1000
0000
0001
,
0010
0000
0000
0000
0011
0000
0000
0000
0000
0000
0100
1000
0010
0000
0000
0000
0000
0000
0100
0000
0000
0000
0010
0000
,
1000
0000
0000
0000
1010
0000
0000
0000
0000
0000
0100
0001
0010
0000
0000
0000
0000
0000
0100
0000
0000
0000
1000
0000
,
0010
0000
0110
0000
0000
0100
0001
0000
1010
0000
0000
0011
,
0000
0000
0000
0000
0101
0000
0000
0000
0000
0000
1100
0000
0000
0000
0000
0000
1001
0000
0000
0000
0000
0000
0100
0010
,
1000
0000
0100
0001
0100
1000
0010
0000
0011
0000
0000
0000
,
1000
0000
0000
0100
0000
0101
0000
0000
0000
1000
0000
0000
,
0010
0000
0210
0000
0000
0000
0000
0000
1000
0001
0300
1000
,
0010
0000
0100
0001
0000
0010
0100
0000
1002
0000
0000
0100
,
1000
0000
0010
0100
0000
1000
0100
0003
0000
1010
0000
0000
,
0011
0000
0000
1100
0000
0000
0101
1000
0010
0011
0000
0010
,
1000
0000
0100
0001
0000
0010
1000
0000
0000
1100
0000
0000
,
0011
0000
0000
0101
0000
0000
1010
0000
1001
0000
0220
0000
,
0000
0000
0000
0000
,
0330
0000
0000
0000
;

//---------------dance-single - Blank----------------
#NOTES:
     dance-single:
     Blank:
     Easy:
     5:
     0.321,0.313,0.436,0.190,0.374,145.000,39.000,17.000,0.000,0.000:

0000
0000
0000
0100
,
0000
1001
0110
1001
,
0110
0000
0000
0001
0000
1000
0000
0000
0000
0000
0000
0000
,
0110
1001
0110
1001
,
0110
0000
0000
1001
0000
0100
0010
0000
0000
0000
0000
0000
,
1000
0000
0000
0100
0000
0010
0000
0000
0002
0000
0000
0003
,
0100
0000
1000
0000
0000
0100
0000
0000
0011
0000
0000
1000
,
0100
0000
0010
0000
0000
0001
0100
0000
2000
0000
0000
3000
,
0100
0000
0001
0000
0000
0010
0000
0000
1010
0000
0000
0001
,
0100
0000
0010
0000
0000
1000
0100
0000
0020
0000
0030
0000
,
0010
0000
0000
0100
0000
0000
0010
0000
0001
0000
0000
1100
,
0000
0000
0000
0101
,
1010
0000
0000
1100
0000
0000
0011
0000
0001
1000
0000
0000
,
0010
0000
0000
0100
0000
0010
0000
0000
2000
0000
0000
3000
,
0100
0000
0010
0000
0000
0001
0000
0000
0101
0000
0000
0100
,
0010
0000
1000
0000
0000
1000
0001
0000
0200
0000
0000
0300
,
0001
0000
1000
0000
0000
0010
0000
0000
1100
0000
0000
0100
,
0010
0000
0001
0000
0000
0001
0010
0000
0100
0000
0000
0000
,
1000
0000
0000
0010
0000
0100
0000
0000
2002
0000
0000
0000
,
0000
0000
0000
0000
3003
0000
0000
0000
0000
0000
0000
0000
,
1100
0011
1010
0101
,
0000
0000
0000
0100
0000
0010
0000
0000
2000
0000
3000
0000
,
0010
0000
0000
0100
0000
0001
0000
0000
0000
0021
0000
0000
,
0000
0030
0000
0100
0000
1000
0000
0000
1020
0000
0000
0030
,
0100
0000
0000
0001
0000
1000
0000
0000
0220
0000
0000
0000
,
0000
0000
0000
0000
0000
0000
0000
0000
0000
0000
0330
0000
,
0000
0000
0000
1001
0000
0000
1100
0000
0000
0101
0000
0100
,
0010
0000
1000
0000
0000
0000
0000
0000
0000
1100
0000
0100
,
0010
0000
0001
0000
0000
0000
0000
0000
0000
1001
0000
0001
,
0010
0000
0100
0000
0000
1000
0010
0000
0100
0000
0000
1010
,
0000
0000
0101
0000
0000
1100
0000
0000
0011
0000
0000
0000
,
0000
0000
0000
0000
0000
0100
0010
0000
0200
0000
0000
0300
,
1000
0000
0000
0001
0000
0101
0000
0000
0000
1100
0000
0000
,
0010
0000
0002
0000
0000
0000
0000
0000
0000
0000
0000
0003
,
0000
0000
0100
1000
0000
1000
0100
0000
0220
0000
0000
0000
,
0000
0000
0000
0000
0000
0000
0000
0330
0000
1000
0000
0000
,
0001
0100
0010
1000
,
0001
0010
0100
1000
,
0001
0000
0000
0100
0000
0000
0010
0000
1000
0000
0002
0000
,
0000
0000
0000
0000
,
0003
0000
0000
0000
;

//---------------dance-single - Blank----------------
#NOTES:
     dance-single:
     Blank:
     Beginner:
     3:
     0.219,0.313,0.190,0.212,0.251,101.000,17.000,19.000,0.000,0.000:

0000
0000
0000
0000
,
0000
0000
0000
0000
,
0000
0000
0000
0000
,
0000
0000
0000
0000
,
0000
0000
0000
0000
,
0001
0000
0000
0001
0000
0010
0000
0000
0020
0000
0000
0030
,
0100
0000
1000
0000
0000
1000
0000
0000
1001
0000
0000
0000
,
0000
0000
0000
0000
0000
0000
0010
0000
2000
0000
0000
3000
,
0100
0000
0010
0000
0000
0001
0000
0000
0110
0000
0000
0000
,
0000
0000
0000
0000
0000
0000
0010
0000
0002
0000
0000
0003
,
0100
0000
0000
0010
0000
0000
1000
0000
0010
0000
0000
1001
,
0000
0000
0000
0000
,
0000
0000
0000
0000
,
1000
0000
0000
0010
0000
0100
0000
0000
0020
0000
0000
0030
,
1000
0000
0001
0000
0000
0100
0000
0000
0101
0000
0000
0000
,
0000
0000
0000
0000
0000
0000
0001
0000
0020
0000
0000
0030
,
0001
0000
1000
0000
0000
0100
0000
0000
1100
0000
0000
0000
,
0000
0000
0000
0000
0000
0000
0100
0000
0020
0000
0000
0030
,
0001
0000
0000
0100
0000
0010
0000
0000
2020
0000
0000
0000
,
0000
3030
0000
0000
,
1001
0110
1001
0110
,
0000
0000
0000
0001
0000
2000
0000
3000
0020
0000
0000
0030
,
1000
0000
0000
0010
0000
0100
0000
0000
0000
0002
0000
0000
,
0000
0000
0003
0010
0000
0100
0000
0000
0020
0000
0000
0030
,
0001
0000
0000
0100
0000
0010
0000
0000
2200
0000
0000
0000
,
0000
0000
0000
0000
0000
0000
0000
0000
0000
0000
0000
3300
,
0000
0001
1000
0010
,
0100
0000
1001
0000
0000
0000
0000
0000
0000
1000
0000
0000
,
0001
0000
0110
0000
0000
0000
0000
0000
0000
0100
0000
0000
,
0010
0000
1001
0000
0000
0000
1000
0000
0100
0000
0000
0010
,
0000
0000
0001
0000
0000
1000
0000
0000
0101
0000
0000
0000
,
0000
0000
0000
0000
0000
0000
0100
0000
0020
0000
0000
0030
,
1000
0000
0000
0001
0000
0100
0000
0000
0000
0110
0000
0000
,
0001
0000
2000
0000
0000
0000
0000
0000
0000
0000
3000
0000
,
0000
0000
0000
0010
0000
0000
0001
0000
2002
0000
0000
0000
,
0000
0000
0000
0000
0000
0000
0000
3003
0000
1000
0000
0000
,
0001
1000
0001
0010
,
0001
0100
0001
1000
,
0010
0000
0000
1000
0000
0000
0010
0000
0100
0000
0020
0000
,
0000
0000
0000
0000
,
0030
0000
0000
0000
;
